论坛风格切换切换到宽版
  • 3729阅读
  • 6回复

例大祭7       narcissus 5月18日+5月16日 24張CD選 8曲 [复制链接]

上一主题 下一主题
 
发帖
316
樱饼
0
博丽神社的喝茶券(威望)
0
春度
45
交易币
0
只看楼主 倒序阅读 楼主  发表于: 2010-05-20
其實不止 24張 還有其他一些  一共35張     我已經被雷的裏嫩外嬌了 !~~~~~~~~~~~~`

下載地址 !~~~~~~~~~~~~~~~~~~

http://u.115.com/file/f846deb42b

格式 TTA   外加 幾張不錯的封面 ! [最討厭那些掃雷的發MP3]

CUE  
  1. REM DATE 2010
  2. PERFORMER "l7"
  3. TITLE "touhou"
  4. FILE "2010_05_Touhou_l7.tta" WAVE
  5.   TRACK 01 AUDIO
  6.     TITLE "終わる季節、閉じる花。"
  7.     PERFORMER "heric"
  8.     INDEX 01 00:00:00
  9.   TRACK 02 AUDIO
  10.     TITLE "Players Score"
  11.     PERFORMER "TokioOoiiko"
  12.     INDEX 01 01:42:44
  13.   TRACK 03 AUDIO
  14.     TITLE "Spring~春眠~"
  15.     PERFORMER "SHO"
  16.     INDEX 01 07:09:01
  17.   TRACK 04 AUDIO
  18.     TITLE "Strawberry Crisis!!"
  19.     PERFORMER "O.Key"
  20.     INDEX 01 11:30:66
  21.   TRACK 05 AUDIO
  22.     TITLE "the Grimoire of Alice"
  23.     PERFORMER "O.Key"
  24.     INDEX 01 15:20:66
  25.   TRACK 06 AUDIO
  26.     TITLE "フラッターガール"
  27.     PERFORMER "中恵光城"
  28.     INDEX 01 18:18:66
  29.   TRACK 07 AUDIO
  30.     TITLE "RADIANT TREASURE"
  31.     PERFORMER "佐伯佑佳"
  32.     INDEX 01 22:52:67
  33.   TRACK 08 AUDIO
  34.     TITLE "亡き巫女の為のセプテット"
  35.     PERFORMER "なつみ"
  36.     INDEX 01 27:03:74
[ 此帖被上海人形の看在2010-05-20 17:07重新编辑 ]
春度条评分
item 春度 +1 2008-08-18
自由 吐槽 無聊 星空 東方 妹抖 河蟹 人渣 高達 3DM ACG 等各类文化交流群 QQ超级群 47700820
离线whzstsl
发帖
53
樱饼
0
博丽神社的喝茶券(威望)
0
春度
0
交易币
0
只看该作者 1楼 发表于: 2010-05-21
narcissus是什么物....我只知道某神gal游戏narcissus
\
离线早苗桑
发帖
249
樱饼
0
博丽神社的喝茶券(威望)
0
春度
5
交易币
0
只看该作者 2楼 发表于: 2010-05-21
Re:例大祭7       narcissus 5月18日+5月16日 24張CD選 8曲
我的都是MP3
而且还是192的
离线narcissus
发帖
35
樱饼
0
博丽神社的喝茶券(威望)
0
春度
60
交易币
0
只看该作者 3楼 发表于: 2010-05-21
Re:例大祭7       narcissus 5月18日+5月16日 24張CD選 8曲
引用第1楼whzstsl于2010-05-21 18:23发表的  :
narcissus是什么物....我只知道某神gal游戏narcissus [表情]


我只看看,我不說話
『死の先にあったはずの未来、そうあるべきだと信じた明日.全ての生は不平等に、全ての死は平等に……』

前天看見了小鹿,昨天是兔子.今天,就誰也不在了.
离线cby007cby
发帖
101
樱饼
0
博丽神社的喝茶券(威望)
0
春度
80
交易币
0
只看该作者 4楼 发表于: 2010-05-21
Re:Re:例大祭7       narcissus 5月18日+5月16日 24張CD選 8曲
引用第3楼narcissus于2010-05-21 18:28发表的 Re:例大祭7       narcissus 5月18日+5月16日 24張CD選 8曲 :
[表情]我只看看,我不說話

水仙你感觉如何了,感觉如何了……
离线OtakuFan
发帖
21
樱饼
0
博丽神社的喝茶券(威望)
0
春度
21
交易币
0
只看该作者 5楼 发表于: 2010-05-21
Re:Re:Re:例大祭7       narcissus 5月18日+5月16日 24張CD選 8曲
引用第4楼cby007cby于2010-05-21 21:04发表的 Re:Re:例大祭7       narcissus 5月18日+5月16日 24張CD選 8曲 :
[表情] 水仙你感觉如何了,感觉如何了……
然后自己也穿上女仆装手舞足蹈
离线circusmayoko
发帖
41
樱饼
0
博丽神社的喝茶券(威望)
0
春度
1
交易币
0
只看该作者 6楼 发表于: 2010-05-22
Re:例大祭7       narcissus 5月18日+5月16日 24張CD選 8曲
水仙内牛满面的站在海边顾影自怜了.....噗~
还有LZ不要歧视我等杯具的MP3党啊,硬盘太小了=  =
我现在能做的就是默默的看着,直到.......那一天的到来
快速回复
限100 字节
 
上一个 下一个